Варкрафт / Warcraft (2016) BDRemux 1080p | D, P, A, L1

 
Автор Сообщение

BOSS ®

Пол:

Стаж: 3 года 1 месяц

Сообщений: 8234

Откуда: ODESSA



Награды: 22 (Подробнее)

Top Seeder 3 (Количество: 1) Top Keeper 4 (Количество: 1) Mega Seeder 5 (Количество: 1)
Торрент-статистика

Создавать темы 14-Ноя-2017 17:38

[Цитировать]


Название: Варкрафт
Оригинальное название: Warcraft
Год выхода: 2016
Жанр: Фэнтези, боевик, приключения
Режиссер: Дункан Джонс
В ролях: Трэвис Фиммел, Пола Пэттон, Бен Фостер, Доминик Купер, Тоби Кеббелл, Бен Шнетцер, Роберт Казински, Клэнси Браун, Дэниэл Ву, Рут Негга
О фильме:
Веками магия и неприступные стены защищали людей от любых напастей. Но древнее зло, побежденное и забытое тысячелетия назад, пробудилось. В самом сердце королевства открылся темный портал, и раса невиданных существ наводнила земли Азерота. Так начались события, призванные навсегда изменить судьбу этого мира.

Страна: США, Китай, Канада, Япония
Студия: Universal Pictures, Legendary Pictures
Продолжительность: 02:03:07
Перевод: профессиональный (дублированный), профессиональный (многоголосый), авторский (одноголосый), любительский (одноголосый)
Субтитры: русские, английские
Формат: MKV
Качество: BDRemux 1080p
Видео: MPEG-4 AVC Video / 21291 kbps / 1920x1080 / 23.976 fps
Звук:
Аудио 1: Russian / Dolby Digital Audio / 640 kbps / 5.1 / 48 kHz / 16-bit - Дубляж (Blu-Ray CEE)
Аудио 2: Russian / DTS-HD Master Audio / 4522 kbps / 7.1 / 48 kHz / 24-bit - Дубляж (редакция by Sergesha)
Аудио 3: Russian / DTS-HD Master Audio / 4411 kbps / 7.1 / 48 kHz / 24-bit - Многоголосый (FocusStudio)
Аудио 4: Russian / DTS-HD Master Audio / 4321 kbps / 7.1 / 48 kHz / 24-bit - Любительский (Евгений Солодухин)
Аудио 5: Russian / DTS-HD Master Audio / 4340 kbps / 7.1 / 48 kHz / 24-bit - Авторский (Дмитрий Есарев)
Аудио 6: Russian / DTS-HD Master Audio / 4385 kbps / 7.1 / 48 kHz / 24-bit - Авторский (Юрий Живов)
Аудио 7: English / DTS-HD Master Audio / 4385 kbps / 7.1 / 48 kHz / 24-bit - Оригинал
Аудио 8: English / Dolby Digital Audio / 192 kbps / 2.0 / 48 kHz / 16-bit - Комментарии

MediaInfo

Format : Matroska
Format version : Version 4 / Version 2
File size : 41.3 GiB
Duration : 2 h 3 min
Overall bit rate mode : Variable
Overall bit rate : 48.0 Mb/s
Movie name : Warcraft_2016г_Tobias Alistair Patrick_[Toby]_Kebbell
Encoded date : UTC 2016-12-23 15:34:10
Writing application : mkvmerge v6.9.1 ('Blue Panther') 64bit built on Apr 18 2014 18:23:38
Writing library : libebml v1.3.0 + libmatroska v1.4.1
Video
ID : 1
Format : AVC
Format/Info : Advanced Video Codec
Format profile : [email protected]
Format settings, CABAC : Yes
Format settings, RefFrames : 4 frames
Format settings, GOP : M=3, N=12
Codec ID : V_MPEG4/ISO/AVC
Duration : 2 h 3 min
Bit rate mode : Variable
Maximum bit rate : 31.5 Mb/s
Width : 1 920 pixels
Height : 1 080 pixels
Display aspect ratio : 16:9
Frame rate mode : Constant
Frame rate : 23.976 (24000/1001) FPS
Color space : YUV
Chroma subsampling : 4:2:0
Bit depth : 8 bits
Scan type : Progressive
Title : Warcraft_2016г_Tobias Alistair Patrick_[Toby]_Kebbell
Language : English
Default : Yes
Forced : No
Audio #1
ID : 2
Format : AC-3
Format/Info : Audio Coding 3
Format settings, Endianness : Big
Codec ID : A_AC3
Duration : 2 h 3 min
Bit rate mode : Constant
Bit rate : 640 kb/s
Channel(s) : 6 channels
Channel positions : Front: L C R, Side: L R, LFE
Sampling rate : 48.0 kHz
Frame rate : 31.250 FPS (1536 SPF)
Bit depth : 16 bits
Compression mode : Lossy
Stream size : 564 MiB (1%)
Title : |Пифагор_2016г|
Language : Russian
Service kind : Complete Main
Default : Yes
Forced : No
Audio #2
ID : 3
Format : DTS
Format/Info : Digital Theater Systems
Format profile : MA / Core
Mode : 16
Format settings, Endianness : Big
Codec ID : A_DTS
Duration : 2 h 3 min
Bit rate mode : Variable / Constant
Bit rate : Unknown / 1 509 kb/s
Channel(s) : 8 channels / 6 channels
Channel positions : Front: L C R, Side: L R, Back: L R, LFE / Front: L C R, Side: L R, LFE
Sampling rate : 48.0 kHz
Frame rate : 93.750 FPS (512 SPF)
Bit depth : 24 bits
Compression mode : Lossless / Lossy
Title : |Дубляж_Пифагор_2016г_by Sergesha|
Language : Russian
Default : No
Forced : No
Audio #3
ID : 4
Format : DTS
Format/Info : Digital Theater Systems
Format profile : MA / Core
Mode : 16
Format settings, Endianness : Big
Codec ID : A_DTS
Duration : 2 h 3 min
Bit rate mode : Variable / Constant
Bit rate : Unknown / 1 509 kb/s
Channel(s) : 8 channels / 6 channels
Channel positions : Front: L C R, Side: L R, Back: L R, LFE / Front: L C R, Side: L R, LFE
Sampling rate : 48.0 kHz
Frame rate : 93.750 FPS (512 SPF)
Bit depth : 24 bits
Compression mode : Lossless / Lossy
Title : |MVO, FocusStudio|_|Валерий Смекалов, Иван Чебан, Максим Сергеев, Михаил Хрусталев, Дмитрий Оргин, Станислав Войнич, Артем Веселов и Ирина Обрезкова|
Language : Russian
Default : No
Forced : No
Audio #4
ID : 5
Format : DTS
Format/Info : Digital Theater Systems
Format profile : MA / Core
Mode : 16
Format settings, Endianness : Big
Codec ID : A_DTS
Duration : 2 h 3 min
Bit rate mode : Variable / Constant
Bit rate : Unknown / 1 509 kb/s
Channel(s) : 8 channels / 6 channels
Channel positions : Front: L C R, Side: L R, Back: L R, LFE / Front: L C R, Side: L R, LFE
Sampling rate : 48.0 kHz
Frame rate : 93.750 FPS (512 SPF)
Bit depth : 24 bits
Compression mode : Lossless / Lossy
Title : |Евгений Солодухин_|Solod|_|
Language : Russian
Default : No
Forced : No
Audio #5
ID : 6
Format : DTS
Format/Info : Digital Theater Systems
Format profile : MA / Core
Mode : 16
Format settings, Endianness : Big
Codec ID : A_DTS
Duration : 2 h 3 min
Bit rate mode : Variable / Constant
Bit rate : Unknown / 1 509 kb/s
Channel(s) : 8 channels / 6 channels
Channel positions : Front: L C R, Side: L R, Back: L R, LFE / Front: L C R, Side: L R, LFE
Sampling rate : 48.0 kHz
Frame rate : 93.750 FPS (512 SPF)
Bit depth : 24 bits
Compression mode : Lossless / Lossy
Title : |Есарев, Дмитрий|
Language : Russian
Default : No
Forced : No
Audio #6
ID : 7
Format : DTS
Format/Info : Digital Theater Systems
Format profile : MA / Core
Mode : 16
Format settings, Endianness : Big
Codec ID : A_DTS
Duration : 2 h 3 min
Bit rate mode : Variable / Constant
Bit rate : Unknown / 1 509 kb/s
Channel(s) : 8 channels / 6 channels
Channel positions : Front: L C R, Side: L R, Back: L R, LFE / Front: L C R, Side: L R, LFE
Sampling rate : 48.0 kHz
Frame rate : 93.750 FPS (512 SPF)
Bit depth : 24 bits
Compression mode : Lossless / Lossy
Title : |Живов, Юрий Викторович|
Language : Russian
Default : No
Forced : No
Audio #7
ID : 8
Format : DTS
Format/Info : Digital Theater Systems
Format profile : MA / Core
Mode : 16
Format settings, Endianness : Big
Codec ID : A_DTS
Duration : 2 h 3 min
Bit rate mode : Variable / Constant
Bit rate : Unknown / 1 509 kb/s
Channel(s) : 8 channels / 6 channels
Channel positions : Front: L C R, Side: L R, Back: L R, LFE / Front: L C R, Side: L R, LFE
Sampling rate : 48.0 kHz
Frame rate : 93.750 FPS (512 SPF)
Bit depth : 24 bits
Compression mode : Lossless / Lossy
Title : |original|
Language : English
Default : No
Forced : No
Audio #8
ID : 9
Format : AC-3
Format/Info : Audio Coding 3
Mode : Dolby Digital
Format settings, Endianness : Big
Codec ID : A_AC3
Duration : 2 h 3 min
Bit rate mode : Constant
Bit rate : 192 kb/s
Channel(s) : 2 channels
Channel positions : Front: L R
Sampling rate : 48.0 kHz
Frame rate : 31.250 FPS (1536 SPF)
Bit depth : 16 bits
Compression mode : Lossy
Stream size : 169 MiB (0%)
Title : |deive|
Language : English
Service kind : Complete Main
Default : No
Forced : No
Text #1
ID : 10
Format : UTF-8
Codec ID : S_TEXT/UTF8
Codec ID/Info : UTF-8 Plain Text
Title : forced, license
Language : Russian
Default : Yes
Forced : No
Text #2
ID : 11
Format : UTF-8
Codec ID : S_TEXT/UTF8
Codec ID/Info : UTF-8 Plain Text
Title : full, license
Language : Russian
Default : No
Forced : No
Text #3
ID : 12
Format : UTF-8
Codec ID : S_TEXT/UTF8
Codec ID/Info : UTF-8 Plain Text
Title : full_MVO, FocusStudio
Language : Russian
Default : No
Forced : No
Text #4
ID : 13
Format : UTF-8
Codec ID : S_TEXT/UTF8
Codec ID/Info : UTF-8 Plain Text
Title : forced, MBB
Language : Russian
Default : No
Forced : No
Text #5
ID : 14
Format : UTF-8
Codec ID : S_TEXT/UTF8
Codec ID/Info : UTF-8 Plain Text
Title : full, MBB
Language : Russian
Default : No
Forced : No
Text #6
ID : 15
Format : UTF-8
Codec ID : S_TEXT/UTF8
Codec ID/Info : UTF-8 Plain Text
Title : full_набор Nunegsdli, при поддержке сообщества Pikabu
Language : Russian
Default : No
Forced : No
Text #7
ID : 16
Format : UTF-8
Codec ID : S_TEXT/UTF8
Codec ID/Info : UTF-8 Plain Text
Title : full
Language : English
Default : No
Forced : No
Text #8
ID : 17
Format : UTF-8
Codec ID : S_TEXT/UTF8
Codec ID/Info : UTF-8 Plain Text
Title : SDH_full
Language : English
Default : No
Forced : No
Menu
00:00:00.000 : :Chapter 1
00:09:26.482 : :Chapter 2
00:15:49.406 : :Chapter 3
00:22:36.146 : :Chapter 4
00:29:16.171 : :Chapter 5
00:38:43.321 : :Chapter 6
00:46:44.092 : :Chapter 7
00:53:02.679 : :Chapter 8
00:56:17.332 : :Chapter 9
01:02:43.926 : :Chapter 10
01:07:48.314 : :Chapter 11
01:12:24.548 : :Chapter 12
01:17:13.045 : :Chapter 13
01:22:45.669 : :Chapter 14
01:26:32.145 : :Chapter 15
01:32:29.669 : :Chapter 16
01:40:25.102 : :Chapter 17
01:47:38.118 : :Chapter 18
01:51:12.832 : :Chapter 19
01:53:58.832 : :Chapter 20
02:03:07.129 : :Chapter 21
[Профиль] [ЛС]
Показать сообщения:    

Текущее время: Сегодня 15:03

Часовой пояс: GMT



Вы не можете начинать темы
Вы не можете отвечать на сообщения
Вы не можете редактировать свои сообщения
Вы не можете удалять свои сообщения
Вы не можете голосовать в опросах
Вы не можете прикреплять файлы к сообщениям
Вы не можете скачивать файлы