Бегущий по Лезвию / Blade Runner (1982) UHD BDRemux 2160p | 4K | HDR | D, A, P, P2 | Финальная версия

 
Автор Сообщение

BOSS ®

Пол:

Стаж: 3 года 1 месяц

Сообщений: 8232

Откуда: ODESSA



Награды: 22 (Подробнее)

Top Keeper 3 (Количество: 1) Mega Seeder 5 (Количество: 1) Mega Seeder 2 (Количество: 1)
Торрент-статистика

Создавать темы 14-Ноя-2017 17:29

[Цитировать]

Информация о фильме
Название: Бегущий по лезвию
Оригинальное название: Blade Runner
Год выхода: 1982
Жанр: Фантастика, триллер, драма, мелодрама, антиутопия, экранизация
Режиссер: Ридли Скотт
В ролях: Харрисон Форд, Рутгер Хауэр, Шон Янг, Эдвард Джеймс Олмос, М. Эммет Уолш, Дэрил Ханна, Уильям Сэндерсон, Брайон Джеймс, Джо Туркел, Джоанна Кэссиди, Джеймс Хонг, Морган Полл, Кевин Томпсон, Джон Эдвард Аллен, Хы Пыке
О фильме:
Недалекое будущее. Декард - полицейский в отставке, бывший "бегущий по лезвию" - охотник на репликантов - андроидов, созданных корпорацией "Тайрелл". Репликанты были объявлены на Земле вне закона, но группа репликантов серии Nexus-6 завладела шаттлом и, перебив команду и пассажиров, вернулась на Землю из колонии. Декарда вызвали для того, чтобы совершить грязную работу - уничтожить их. По роману Филипа К. Дика "Мечтают ли андроиды об электроовцах?»

Страна: США, Гонконг
Студия: Norman Lear/Tandem Productions, Shaw Brothers (Hong Kong) Limited, The Ladd Company
Продолжительность: 01:57:31
Перевод(ы):
#01: Дублированный | Лицензия
#02: Профессиональный многоголосый | Киномания
#03: Профессиональный двухголосый | Tycoon
#04: Авторский | Гаврилов
#05: Авторский | Живов
#06: Авторский | Матвеев
#07: Авторский | Попов
#08: Авторский | Карцев
#09: Авторский | Есарев
#10: Авторский | Завгородний
#11: Авторский | Поздняков
Файл
Качество: BDRemux 2160p
Видео: MPEG-H HEVC HDR Video, 3840x2160, 50.0 Mbit/s, 23.976 fps
Звук:
Аудио #01: 48 kHz, AC3, 5.1, 640 Kbps | Дублированный | RUS |
Аудио #02: 48 kHz, DTS-HD MA, 5.1, 4196 Kbps | Профессиональный многоголосый | RUS |
Аудио #03: 48 kHz, DTS, 5.1, 1510 Kbps | Профессиональный двухголосый | RUS |
Аудио #04: 48 kHz, DTS-HD MA, 5.1, 4204 Kbps | Авторский | RUS |
Аудио #05: 48 kHz, DTS-HD MA, 5.1, 4213 Kbps | Авторский | RUS |
Аудио #06: 48 kHz, DTS-HD MA, 5.1, 4208 Kbps | Авторский | RUS |
Аудио #07: 48 kHz, DTS-HD MA, 5.1, 4013 Kbps | Авторский | RUS |
Аудио #08: 48 kHz, AC3, 5.1, 448 Kbps | Авторский | RUS |
Аудио #09: 48 kHz, AC3, 5.1, 448 Kbps | Авторский | RUS |
Аудио #10: 48 kHz, AC3, 5.1, 448 Kbps | Авторский | RUS |
Аудио #11: 48 kHz, AC3, 2.0, 192 Kbps | Авторский | RUS |
Аудио #12: 48 kHz, TrueHD, 5.1, 4336 Kbps | Оригинал | ENG |
Аудио #13: 48 kHz, AC3, 5.1, 448 Kbps | Оригинал | ENG |
Аудио #14: 48 kHz, AC3, 2.0, 192 Kbps | Commentary by director Ridley Scott | ENG |
Аудио #15: 48 kHz, AC3, 2.0, 192 Kbps | Commentary by Hampton Fancher, David Peoples, Michael Deely and Katherine Haber | ENG |
Аудио #16: 48 kHz, AC3, 2.0, 192 Kbps | Commentary by Syd Mead, G. Paull, David L. Snyder, Douglas Trumbull, Richard Yuricich and David Dryer | ENG |
Субтитры: Русские (full), английские (full)

MI

General
Unique ID : 174631787978103633989302804823104430378 (0x8360DBE5842E37DDB7378FA5DB5E212A)
Complete name : G:VideoSSDBlade.Runner.1982.The.Final.Cut.BDREMUX.2160p.4K.UltraHD.HEVC.HDR.ExKinoRay.mkv
Format : Matroska
Format version : Version 4 / Version 2
File size : 65.6 GiB
Duration : 1 h 57 min
Overall bit rate mode : Variable
Overall bit rate : 79.9 Mb/s
Movie name : Release by ExKinoRay
Encoded date : UTC 2017-11-14 02:49:24
Writing application : mkvmerge v17.0.0 ('Be Ur Friend') 64-bit
Writing library : libebml v1.3.5 + libmatroska v1.4.8
Cover : Yes
Attachments : cover.jpg
Video
ID : 1
Format : HEVC
Format/Info : High Efficiency Video Coding
Format profile : Main [email protected]@High
Codec ID : V_MPEGH/ISO/HEVC
Duration : 1 h 57 min
Bit rate : 50.0 Mb/s
Width : 3 840 pixels
Height : 2 160 pixels
Display aspect ratio : 16:9
Frame rate mode : Constant
Frame rate : 23.976 (24000/1001) FPS
Color space : YUV
Chroma subsampling : 4:2:0 (Type 2)
Bit depth : 10 bits
Bits/(Pixel*Frame) : 0.251
Stream size : 41.0 GiB (63%)
Writing library : ATEME Titan File 3.8.3 (4.8.3.0)
Language : English
Default : Yes
Forced : No
Color range : Limited
Color primaries : BT.2020
Transfer characteristics : PQ
Matrix coefficients : BT.2020 non-constant
Mastering display color pri : R: x=0.680000 y=0.320000, G: x=0.265000 y=0.690000, B: x=0.150000 y=0.060000, White point: x=0.312700 y=0.329000
Mastering display luminance : min: 0.0050 cd/m2, max: 4000.0000 cd/m2
Maximum Content Light Level : 1655 cd/m2
Maximum Frame-Average Light : 117 cd/m2
Audio #1
ID : 2
Format : AC-3
Format/Info : Audio Coding 3
Format settings, Endianness : Big
Codec ID : A_AC3
Duration : 1 h 57 min
Bit rate mode : Constant
Bit rate : 640 kb/s
Channel(s) : 6 channels
Channel positions : Front: L C R, Side: L R, LFE
Sampling rate : 48.0 kHz
Frame rate : 31.250 FPS (1536 SPF)
Bit depth : 16 bits
Compression mode : Lossy
Stream size : 538 MiB (1%)
Title : Dub [License]
Language : Russian
Service kind : Complete Main
Default : Yes
Forced : No
Audio #2
ID : 3
Format : DTS
Format/Info : Digital Theater Systems
Format profile : MA / Core
Mode : 16
Format settings, Endianness : Big
Codec ID : A_DTS
Duration : 1 h 57 min
Bit rate mode : Variable / Constant
Bit rate : 4 196 kb/s / 1 509 kb/s
Channel(s) : 6 channels
Channel positions : Front: L C R, Side: L R, LFE
Sampling rate : 48.0 kHz
Frame rate : 93.750 FPS (512 SPF)
Bit depth : 24 bits
Compression mode : Lossless / Lossy
Stream size : 3.45 GiB (5%)
Title : MVO [Киномания]
Language : Russian
Default : No
Forced : No
Audio #3
ID : 4
Format : DTS
Format/Info : Digital Theater Systems
Mode : 16
Format settings, Endianness : Big
Codec ID : A_DTS
Duration : 1 h 57 min
Bit rate mode : Constant
Bit rate : 1 510 kb/s
Channel(s) : 6 channels
Channel positions : Front: L C R, Side: L R, LFE
Sampling rate : 48.0 kHz
Frame rate : 93.750 FPS (512 SPF)
Bit depth : 24 bits
Compression mode : Lossy
Stream size : 1.24 GiB (2%)
Title : DVO [Tycoon]
Language : Russian
Default : No
Forced : No
Audio #4
ID : 5
Format : DTS
Format/Info : Digital Theater Systems
Format profile : MA / Core
Mode : 16
Format settings, Endianness : Big
Codec ID : A_DTS
Duration : 1 h 57 min
Bit rate mode : Variable / Constant
Bit rate : 4 204 kb/s / 1 509 kb/s
Channel(s) : 6 channels
Channel positions : Front: L C R, Side: L R, LFE
Sampling rate : 48.0 kHz
Frame rate : 93.750 FPS (512 SPF)
Bit depth : 24 bits
Compression mode : Lossless / Lossy
Stream size : 3.45 GiB (5%)
Title : AVO [Гаврилов]
Language : Russian
Default : No
Forced : No
Audio #5
ID : 6
Format : DTS
Format/Info : Digital Theater Systems
Format profile : MA / Core
Mode : 16
Format settings, Endianness : Big
Codec ID : A_DTS
Duration : 1 h 57 min
Bit rate mode : Variable / Constant
Bit rate : 4 213 kb/s / 1 509 kb/s
Channel(s) : 6 channels
Channel positions : Front: L C R, Side: L R, LFE
Sampling rate : 48.0 kHz
Frame rate : 93.750 FPS (512 SPF)
Bit depth : 24 bits
Compression mode : Lossless / Lossy
Stream size : 3.46 GiB (5%)
Title : AVO [Живов]
Language : Russian
Default : No
Forced : No
Audio #6
ID : 7
Format : DTS
Format/Info : Digital Theater Systems
Format profile : MA / Core
Mode : 16
Format settings, Endianness : Big
Codec ID : A_DTS
Duration : 1 h 57 min
Bit rate mode : Variable / Constant
Bit rate : 4 208 kb/s / 1 509 kb/s
Channel(s) : 6 channels
Channel positions : Front: L C R, Side: L R, LFE
Sampling rate : 48.0 kHz
Frame rate : 93.750 FPS (512 SPF)
Bit depth : 24 bits
Compression mode : Lossless / Lossy
Stream size : 3.46 GiB (5%)
Title : AVO [Матвеев]
Language : Russian
Default : No
Forced : No
Audio #7
ID : 8
Format : DTS
Format/Info : Digital Theater Systems
Format profile : MA / Core
Mode : 16
Format settings, Endianness : Big
Codec ID : A_DTS
Duration : 1 h 57 min
Bit rate mode : Variable / Constant
Bit rate : 4 013 kb/s / 768 kb/s
Channel(s) : 6 channels
Channel positions : Front: L C R, Side: L R, LFE
Sampling rate : 48.0 kHz
Frame rate : 93.750 FPS (512 SPF)
Bit depth : 24 bits
Compression mode : Lossless / Lossy
Stream size : 3.30 GiB (5%)
Title : AVO [Попов]
Language : Russian
Default : No
Forced : No
Audio #8
ID : 9
Format : AC-3
Format/Info : Audio Coding 3
Format settings, Endianness : Big
Codec ID : A_AC3
Duration : 1 h 57 min
Bit rate mode : Constant
Bit rate : 448 kb/s
Channel(s) : 6 channels
Channel positions : Front: L C R, Side: L R, LFE
Sampling rate : 48.0 kHz
Frame rate : 31.250 FPS (1536 SPF)
Bit depth : 16 bits
Compression mode : Lossy
Stream size : 376 MiB (1%)
Title : AVO [Карцев]
Language : Russian
Service kind : Complete Main
Default : No
Forced : No
Audio #9
ID : 10
Format : AC-3
Format/Info : Audio Coding 3
Format settings, Endianness : Big
Codec ID : A_AC3
Duration : 1 h 57 min
Bit rate mode : Constant
Bit rate : 448 kb/s
Channel(s) : 6 channels
Channel positions : Front: L C R, Side: L R, LFE
Sampling rate : 48.0 kHz
Frame rate : 31.250 FPS (1536 SPF)
Bit depth : 16 bits
Compression mode : Lossy
Stream size : 377 MiB (1%)
Title : AVO [Есарев]
Language : Russian
Service kind : Complete Main
Default : No
Forced : No
Audio #10
ID : 11
Format : AC-3
Format/Info : Audio Coding 3
Format settings, Endianness : Big
Codec ID : A_AC3
Duration : 1 h 57 min
Bit rate mode : Constant
Bit rate : 448 kb/s
Channel(s) : 6 channels
Channel positions : Front: L C R, Side: L R, LFE
Sampling rate : 48.0 kHz
Frame rate : 31.250 FPS (1536 SPF)
Bit depth : 16 bits
Compression mode : Lossy
Stream size : 375 MiB (1%)
Title : AVO [Завгородний]
Language : Russian
Service kind : Complete Main
Default : No
Forced : No
Audio #11
ID : 12
Format : AC-3
Format/Info : Audio Coding 3
Format settings, Endianness : Big
Codec ID : A_AC3
Duration : 1 h 57 min
Bit rate mode : Constant
Bit rate : 192 kb/s
Channel(s) : 2 channels
Channel positions : Front: L R
Sampling rate : 48.0 kHz
Frame rate : 31.250 FPS (1536 SPF)
Bit depth : 16 bits
Compression mode : Lossy
Stream size : 162 MiB (0%)
Title : AVO [Поздняков]
Language : Russian
Service kind : Complete Main
Default : No
Forced : No
Audio #12
ID : 13
Format : TrueHD
Format profile : TrueHD+Atmos / TrueHD
Codec ID : A_TRUEHD
Duration : 1 h 57 min
Bit rate mode : Variable
Bit rate : 4 336 kb/s
Maximum bit rate : 7 305 kb/s
Channel(s) : Object Based / 8 channels
Channel positions : Object Based / Front: L C R, Side: L R, Back: L R, LFE
Sampling rate : / 48.0 kHz
Frame rate : 1 200.000 FPS (40 SPF)
Compression mode : Lossless
Stream size : 3.56 GiB (5%)
Title : Original
Language : English
Default : No
Forced : No
Audio #13
ID : 14
Format : AC-3
Format/Info : Audio Coding 3
Format settings, Endianness : Big
Codec ID : A_AC3
Duration : 1 h 57 min
Bit rate mode : Constant
Bit rate : 448 kb/s
Channel(s) : 6 channels
Channel positions : Front: L C R, Side: L R, LFE
Sampling rate : 48.0 kHz
Frame rate : 31.250 FPS (1536 SPF)
Bit depth : 16 bits
Compression mode : Lossy
Stream size : 377 MiB (1%)
Language : English
Service kind : Complete Main
Default : No
Forced : No
Audio #14
ID : 15
Format : AC-3
Format/Info : Audio Coding 3
Format settings, Endianness : Big
Codec ID : A_AC3
Duration : 1 h 57 min
Bit rate mode : Constant
Bit rate : 192 kb/s
Channel(s) : 2 channels
Channel positions : Front: L R
Sampling rate : 48.0 kHz
Frame rate : 31.250 FPS (1536 SPF)
Bit depth : 16 bits
Compression mode : Lossy
Stream size : 161 MiB (0%)
Title : Commentary by director Ridley Scott
Language : English
Service kind : Complete Main
Default : No
Forced : No
Audio #15
ID : 16
Format : AC-3
Format/Info : Audio Coding 3
Format settings, Endianness : Big
Codec ID : A_AC3
Duration : 1 h 57 min
Bit rate mode : Constant
Bit rate : 192 kb/s
Channel(s) : 2 channels
Channel positions : Front: L R
Sampling rate : 48.0 kHz
Frame rate : 31.250 FPS (1536 SPF)
Bit depth : 16 bits
Compression mode : Lossy
Stream size : 161 MiB (0%)
Title : Commentary by Hampton Fancher, David Peoples, Michael Deely and Katherine Haber
Language : English
Service kind : Complete Main
Default : No
Forced : No
Audio #16
ID : 17
Format : AC-3
Format/Info : Audio Coding 3
Format settings, Endianness : Big
Codec ID : A_AC3
Duration : 1 h 57 min
Bit rate mode : Constant
Bit rate : 192 kb/s
Channel(s) : 2 channels
Channel positions : Front: L R
Sampling rate : 48.0 kHz
Frame rate : 31.250 FPS (1536 SPF)
Bit depth : 16 bits
Compression mode : Lossy
Stream size : 161 MiB (0%)
Title : Commentary by Syd Mead, G. Paull, David L. Snyder, Douglas Trumbull, Richard Yuricich and David Dryer
Language : English
Service kind : Complete Main
Default : No
Forced : No
Text #1
ID : 18
Format : UTF-8
Codec ID : S_TEXT/UTF8
Codec ID/Info : UTF-8 Plain Text
Duration : 1 h 52 min
Bit rate : 46 b/s
Count of elements : 786
Stream size : 38.6 KiB (0%)
Title : Full
Language : Russian
Default : No
Forced : No
Text #2
ID : 19
Format : UTF-8
Codec ID : S_TEXT/UTF8
Codec ID/Info : UTF-8 Plain Text
Duration : 1 h 57 min
Bit rate : 26 b/s
Count of elements : 804
Stream size : 23.0 KiB (0%)
Title : Full
Language : English
Default : No
Forced : No
Menu
00:00:00.000 : en:Credits and Forward
00:02:58.178 : en:Eye on the City
00:04:31.980 : en:Leon's Emotional Response
00:07:26.112 : en:Street Scene; Interrupted Sushi
00:11:18.261 : en:The Old Blade Runner Magic
00:12:58.569 : en:The Replicants in Question
00:16:58.184 : en:Rachael; the Voight-Kampff Test
00:22:38.816 : en:Leon's Apartment
00:25:04.878 : en:Chew's Visitors
00:27:58.343 : en:If Only You Could See...
00:30:21.486 : en:A Visitor with Someone Else's Memories
00:36:19.177 : en:Pris Meets Sebastian
00:41:30.321 : en:Deckard's Dream
00:42:24.000 : en:Computer Photo Scan
00:45:56.337 : en:Manufactured Skin
00:48:44.463 : en:Miss Salome's Dressing Room
00:55:18.899 : en:Pursuing Zhora
00:57:27.277 : en:Retirement...Witnessed
00:59:44.998 : en:How Many to Go?
01:01:49.414 : en:Wake Up. Time to Die.
01:03:17.002 : en:I Am the Business. I Owe You One.
01:07:44.394 : en:The Real Thing?
01:12:39.522 : en:There's Only Two of Us Now.
01:16:13.527 : en:We Need You, Sebastian.
01:20:12.474 : en:The Right Moves
01:22:34.533 : en:The Prodigal Son Brings Death
01:27:07.514 : en:No Way to Treat a Friend
01:28:45.237 : en:Death Among the Menagerie
01:34:02.220 : en:Proud of Yourself, Little Man?
01:36:54.308 : en:Wounded Animals
01:41:12.316 : en:The Building Ledge
01:42:37.276 : en:The Roof
01:44:31.807 : en:To Live in Fear
01:45:56.267 : en:Like Tears in Rain. But Then Again, Who Does?
01:49:04.496 : en:Souvenir of Dreams
01:52:21.735 : en:End Credits
[Профиль] [ЛС]
Кто просматривает тему:

Форум Тема Автор Размер
Фильмы 2016 года Бегущая от реальности / Complete Unknown (2016) BDRip | iTunes BOSS 1.42 GB
Фильмы (HD Rips | 720p, 1080p) Бегущий в лабиринте / The Maze Runner (2014) BDRip 1080p | iTunes sergej644 8.02 GB
Фильмы (HD Rips | 720p, 1080p) Бегущий в лабиринте / The Maze Runner (2014) BDRip [1080p] sergej644 11.85 GB
Фильмы (HD Rips | 720p, 1080p) Бегущий в лабиринте / The Maze Runner (2014) BDRip-AVC от R.G. HD-Films | 60 fps | Лицензия sergej644 3.82 GB
Фильмы 2014 года Бегущий в лабиринте / The Maze Runner (Уэс Болл / Wes Ball) [2014, США, Великобритания, Канада, фантастика, триллер, приключения, BDRip-AVC] Dub (Rus) + Dub (Urk) + Original (Eng) + Subs TorrentFilm 2.61 GB
Фильмы 2014 года Бегущий в лабиринте / The Maze Runner (Уэс Болл / Wes Ball) [2014, США, Великобритания, Канада, фантастика, триллер, приключения, BDRip-AVC] Dub + Dub Ukr + Sub Rus, Ukr, Eng + Original Eng TorrentFilm 2.27 GB
Фильмы 2014 года Бегущий в лабиринте / The Maze Runner (Уэс Болл / Wes Ball) [2014, США, Великобритания, Канада, Фантастика, триллер, приключения, BDRip-AVC] Dub + Sub Rus,Eng + Original Eng TorrentFilm 2.74 GB
Фильмы 2014 года Бегущий в лабиринте / The Maze Runner (Уэс Болл / Wes Ball) [2014, США, Великобритания, Канада, Фантастика, триллер, приключения, BDRip] Dub TorrentFilm 1.46 GB
Показать сообщения:    

Текущее время: Сегодня 22:43

Часовой пояс: GMT



Вы не можете начинать темы
Вы не можете отвечать на сообщения
Вы не можете редактировать свои сообщения
Вы не можете удалять свои сообщения
Вы не можете голосовать в опросах
Вы не можете прикреплять файлы к сообщениям
Вы не можете скачивать файлы